Vuvasi

Холокост - глазами смерти / The Unseen Holocaust (2014)

SSSR Krushenie (1-8 serij iz 8) 2011 XviD SATRip RiperAM

Сначала это относилось к людям с психическими расстройствами, а затем и к «расово неполноценным лицам нетрадиционной сексуальной ориентации или просто «врагам государства» как внутри страны, так и за ее пределами. Во время второй мировой войны политика нацистов свелась к полному. Фильм содержит рассказы политиков, дипломатов, военных - тех, кто непосредственно влиял на драматический ход событий, будь то падение Берлинской стены или Беловежские соглашения. Михаил Горбачев, Борис Ельцин, Виктор Черномырдин, Леонид Кравчук, Дмитрий Язов, Джеймс Бейкер, Збигнев Бжезинский, Ганс-Дитрих Геншер. Bogataj masha 02 serij iz 04.2010 XviD. H264.720p-Mania mp4 SSSR Krah imperii e07 SATR ip RiperAM ALPINESTARS. Zhurov (1-8 serii iz). В 1945 году, когда наступающие союзные войска вошли в эти лагеря, их взору открылись страшные последствия данной политики: сотни тысяч голодных и больных заключенных, запертых в помещениях с тысячами разлагающихся тел, газовые камеры, крематории, тысячи братских могил, а также документы. Соотношение сторон : 16:9. Частота кадров : 25,000 кадров/сек. Цветовое пространство : YUV. Субдискретизация насыщенности :. Битовая глубина : 8 бит. Тип развёртки : Прогрессивная. Метод сжатия : С потерями. Бит ПикселиКадры) : 0.204 Размер потока : 696 Мбайт (88). Видео Идентификатор : 0. Формат : MPEG -4 Visual. Профиль формата : Advanced Simple@L5. Параметр BVOP формата : 1. Параметр QPel формата : Нет. Параметр GMC формата : Без точки перехода. (1,00 видеокадр) Время предзагрузки промежутка : 500  мс. Скриншоты: Все одноименные релизы в Клубе Время раздачи: с 19:00 до 23:00 (до появления первых 3-5 скачавших).

“Таким образом нацисты истребили более 10 миллионов человек, в том числе 6 миллионов евреев. Недавно найденные фотографии из Советского Союза показывает сцены убийств евреев. Более 70 лет они пылились в архивах.”
chicoscontentos.com


у нас <i>riperam</i> вы <strong>satrip</strong> <u>riperam</u> найдете <em>satrip</em> <i>sssr</i> <i>xvid</i> <i>satrip</i> любые <i>xvid</i> <u>serij</u> документальные <u>serij</u> <i>xvid</i> фильмы на <u>serij</u> <strong>xvid</strong> <strong>riperam</strong> любой <u>sssr</u> <i>satrip</i> вкус <em>satrip</em> <em>riperam</em> <em>krushenie</em> <strong>krushenie</strong> и интерес. 7593

7 м. Вид битрейта : Постоянный Битрейт : 192 Кбит/сек Каналы : 2 канала Расположение каналов : Front: астота : 48,0 КГц Частота кадров : 31,250 кадров/сек (1536 spf) Метод сжатия : С потерями Размер потока : 93,0 Мбайт (12).
предопределивших распад. VIDEO СССР. О <em>xvid</em> <strong>riperam</strong> перестройке - <strong>xvid</strong> последнем <em>serij</em> звене цепи <strong>riperam</strong> <strong>krushenie</strong> побед <strong>krushenie</strong> и <i>krushenie</i> поражений <strong>satrip</strong> Советского <em>serij</em> <em>satrip</em> Союза. Как и почему <u>xvid</u> перестала существовать <i>riperam</i> великая <u>xvid</u> страна. О внутренних и внешних <em>xvid</em> причинах, крушение 1 Восьмисерийная документальная лента рассказывает <u>sssr</u> о том, 3535

Download safe sssr test 1at TreeTorrent with new service SpyOFF VPN for making yourself hidden from spying. sssr krushenie 14.7 GB.
крушение 1 <em>riperam</em> <strong>riperam</strong> - <u>krushenie</u> Восьмисерийная <strong>satrip</strong> <u>xvid</u> <i>krushenie</i> документальная <i>xvid</i> лента <u>riperam</u> <em>serij</em> рассказывает <em>satrip</em> о <u>krushenie</u> <u>sssr</u> том, <i>krushenie</i> <u>krushenie</u> как <em>satrip</em> <strong>serij</strong> <i>krushenie</i> <strong>riperam</strong> и <u>satrip</u> <u>satrip</u> почему. СССР. 1829

Формат/Информация : Audio Video Interleave. Размер файла : 794 Мбайт. Продолжительность : 1 ч. 7 м. Общий поток : 1639 Кбит/сек. Программа кодирования : VirtualDubMod urlrtualdub-fr. org/url (build 2550/release) Библиотека кодирования : VirtualDubMod build 2550/release.

Drive (2011)

Trzymajcy w napiciu jak Bullitt rozgrzeje publiczno nie tylko rykiem silnikw, ale przede wszystkim gorczk uczu. (10) Zdy przed pnoc autor: SQNboy Drive Nicolasa Windinga Refna Bronson trylogia Pusher jest jak ogie i woda, ziemia i powietrze, a do jego.


Drive (2011)


подробнее

Skora w.ktorej zyje

Рождество Мэри 03. Смешливого Рождества 04. В забытьи 05. Край неба 06. Бледно-голубое 07. Сладко-сладко-горький 08. Мужские дела 09. Смесь 10. Вишня 11. Лапушка, птичка 12. Обнажённое 13. Пупок и профессия Приятного просмотра! Net Дыши со мной 2 сезон /.


Skora w.ktorej zyje


подробнее

行动目标希特勒£圣城loveliness

Dassie the dog s barks for help lead to unusual mountain rescue 08:01 A dog who found itself stuck on a mountain ledge in the Stellenbosch area has a farm resident to thank for his rescue after she heard.


行动目标希特勒£圣城loveliness


подробнее

Сексмиссия (Новые амазонки) 1983

Trigun thrives on this trope. Wolfwood wields the Cross Punisher, which actually contains a machine gun, a missile launcher, and (in the anime) between six and eight normal-sized guns. Knowing that Wolfwood s Punisher is slightly taller than him and.


Сексмиссия (Новые амазонки) 1983


подробнее

Аноним byPodol1976

There will be no groping, no Pokemon speak, nothing; as far as she s aware, every encounter with a human is a life or death situation, and it s her life on the line. Goron ki na Kalon ki (dj.


Аноним byPodol1976


подробнее
SSSR Krushenie (1-8 serij iz 8) 2011
Rij. iz.11).2012.XviD. WEB-DLRip. 2154MB 380C.
3,5 / 5 stars
Sitemap